Download mp3 rapidshare Filmy warez

torrent megaupload hotfile
Je 14 Dec 2018 23:48

Všetky časy sú v UTC+01:00




Vložiť nový príspevok  Odpovedať k tejto téme  [ 1 príspevok ] 
Autor Správa
PríspevokNapísané: 24 Máj 2013 11:40 
Nepripojený
Pokročilý
Pokročilý

Dátum registrácie: 14 Jún 2012 11:57
Príspevky: 276
Ga'Hoole: Legenda o str????coch / Legend of Guardians (2010)

Obrázok

Kód:
http://www.csfd.cz/film/241752-legenda-o-sovich-strazcich/


Animovan?? / Dobrodru??n?? / Fantasy

USA / Austr??lie, 2010, 97 min
Re??ie: Zack Snyder
P?™edloha: Kathryn Lasky (kniha)
Sc?©n???™: John Orloff, Emil Stern
Hudba: David Hirschfelder
Hraj?­: Jim Sturgess, Geoffrey Rush, David Wenham, Hugo Weaving, Ryan Kwanten, Helen Mirren, Miriam Margolyes, Bill Hunter, Sam Neill, Anthony LaPaglia, Essie Davis, Deborra-Lee Furness, Leigh Whannell, Emily Barclay, Sacha Horler, Abbie Cornish, Richard Roxburgh, Angus Sampson, Joel Edgerton


:info:
Kód:
General 
 Complete name                            : D:\filmy\Avi filmy\Legenda-o-sovich-strazcichCZ-2010.mp4
 Format                                   : MPEG-4
 Format profile                           : Base Media
 Codec ID                                 : isom
 File size                                : 518 MiB
 Duration                                 : 1h 36mn
 Overall bit rate mode                    : Variable
 Overall bit rate                         : 748 Kbps
 Writing application                      : Lavf52.94.0

 Video
 ID                                       : 1
 Format                                   : MPEG-4 Visual
 Format profile                           : Simple@L1
 Format settings, BVOP                    : No
 Format settings, QPel                    : No
 Format settings, GMC                     : No warppoints
 Format settings, Matrix                  : Default (H.263)
 Codec ID                                 : 20
 Duration                                 : 1h 36mn
 Bit rate                                 : 578 Kbps
 Width                                    : 320 pixels
 Height                                   : 136 pixels
 Display aspect ratio                     : 2.35:1
 Frame rate mode                          : Variable
 Frame rate                               : 23.976 fps
 Minimum frame rate                       : 11.988 fps
 Maximum frame rate                       : 23.976 fps
 Color space                              : YUV
 Chroma subsampling                       : 4:2:0
 Bit depth                                : 8 bits
 Scan type                                : Progressive
 Compression mode                         : Lossy
 Bits/(Pixel*Frame)                       : 0.554
 Stream size                              : 400 MiB (77%)
 Writing library                          : Lavc52.108.0

 Audio
 ID                                       : 2
 Format                                   : AAC
 Format/Info                              : Advanced Audio Codec
 Format profile                           : LC
 Codec ID                                 : 40
 Duration                                 : 1h 36mn
 Bit rate mode                            : Variable
 Bit rate                                 : 165 Kbps
 Channel(s)                               : 2 channels
 Channel positions                        : Front: L R
 Sampling rate                            : 48.0 KHz
 Compression mode                         : Lossy
 Stream size                              : 114 MiB (22%)


Jazyk:CZ
Typ s??boru: MP4
VeÄ?kos?? s??boru: 518 MB


:screen:
Obrázok

:download:
Kód:
http://download.hellshare.sk/legenda-o-sovich-strazcichcz-2010-mp4/13386320/


Zoznam mojich MP4 a 3GP filmov na HELLSHARE:

Kód:
http://download.hellshare.sk/3gp-filmy/10766711/


Hore
Zobraziť príspevky za:  Zoradiť podľa  
Vložiť nový príspevok  Odpovedať k tejto téme  [ 1 príspevok ] 

Všetky časy sú v UTC+01:00


Kto je prítomný

Užívatelia prezerajúci toto fórum: Žiadny pripojení užívatelia a 2 neregistrovaní


V tomto fóre nemôžete zakladať témy
V tomto fóre nemôžete odpovedať v témach
V tomto fóre nemôžete upravovať vlastné príspevky
V tomto fóre nemôžete mazať vlastné príspevky

Vyhľadať:
Rýchla navigácia vo fórach:  
cron
Založené na phpBB® Forum Software © phpBB Limited
Theme Created by HOLLYSMOKE
Theme updated to phpBB 3.1.6 by KamijouTouma
Theme Version is 3.1.6-ss2